Категории
Ожидаемые релизы
Тор Рагнарёк / Thor: Ragnarok (2017)
Марсианин (2016)
Прототип / The Prototype (2017)
Торренты пользователей
Мимино (1977) WEBRip 720p
Ключи для ESET NOD32, Kaspersky, Avast, Dr.Web, Avira [2017, RUS]
The Cure - Дискография [1979-2008, MP3, 320 kbps]
Синий экзорцист: Нечестивый король Киото / Ao no Exorcist: Kyoto Fujouou-hen / Blue Exorcist: Kyoto Saga / Блакитний Екзорцист: Нечестивий Король Кіото (сезон 2, серии 1-12+1 (12+1)) [2017, UKR, WEB-DLRip 720p] | L2
Навител Навигатор v 9.8.19 + карты Q1 2017 [2017, RUS(Multi), Android]
Партнёры
Стать партнёром
Название

Торрент Грязная работа (сезон 1-2, серии 32(32)) [2009, DVD]

Скачать Торрент  Подписка на уведомления
Хеш 17cff491c3e90b66182f6b671c47f7b7418abcc7
Категория Видео-->Отечественные сериалы
Жанры Детектив, Криминал, Приключения
Время раздачи 15:00 - 00:02
Описание Название: Грязная работа

Год: 2009

Сезон: 1 2

Серии: 32

Всего в сезоне серий: 16

Режиссёр: Владимир Дмитриевский

В ролях: Владимир Большов, Татьяна Лютаева, Владислав Галкин, Дарья Михайлова, Михаил Васьков, Юрий Беляев, Людмила Слюсарева, Анастасия Панина, Татьяна Агафонова, Алексей Колган

Описание:

Тарасов — бывший следователь, привыкший брать ответственность на себя в экстремальных ситуациях. Он открывает свое частное детективное агентство. Но бизнес для него — не самоцель. Он готов помогать людям бесплатно, если считает справедливым и важным помочь конкретному человеку. Он всегда действует следуя своей логике, подчас не укладывающейся в общепринятые рамки. Неожиданно для него самого, незаменимым помощником в самых сложных делах становится девушка Вера, которую он когда-то принял на должность секретарши.

Выпущено: Россия

Продолжительность: 32 х 00:40:05

Перевод: Оригинал

Качество:  DVD

Видео:  MPEG-2, 3123 Кбит/с, [email protected]

Аудио: MP2, 2 ch, 224 Кбит/с

[spoiler=MediaInfo]General
General
Complete name               : D:\1 ФИЛЬМЫ T (сист.блок )\1СЕРИАЛЫ\Грязная работа\Грязная работа преобразованный\Грязная работа 1-2 сезон\Грязная работа  2009  Сезон 1 ( 16 серий из 16 )  HDRip\5 серия.Дело хирурга.mpg
Format                      : MPEG-PS
File size                   : 939 MiB
Duration                    : 44 min 6 s
Overall bit rate mode       : Variable
Overall bit rate            : 2 976 kb/s

Video
ID                          : 224 (0xE0)
Format                      : MPEG Video
Format version              : Version 2
Format profile              : [email protected]
Format settings, BVOP       : Yes
Format settings, Matrix     : Default
Format settings, GOP        : M=3, N=12
Duration                    : 44 min 6 s
Bit rate mode               : Variable
Bit rate                    : 2 693 kb/s
Maximum bit rate            : 9 610 kb/s
Width                       : 720 pixels
Height                      : 576 pixels
Display aspect ratio        : 16:9
Frame rate                  : 25.000 FPS
Standard                    : PAL
Color space                 : YUV
Chroma subsampling          : 4:2:0
Bit depth                   : 8 bits
Scan type                   : Progressive
Scan order                  : Bottom Field First
Compression mode            : Lossy
Bits/(Pixel*Frame)          : 0.260
Time code of first frame    : 00:00:00:00
Time code source            : Group of pictures header
GOP, Open/Closed            : Open
GOP, Open/Closed of first f : Closed
Stream size                 : 849 MiB (90%)

Audio
ID                          : 192 (0xC0)
Format                      : MPEG Audio
Format version              : Version 1
Format profile              : Layer 2
Duration                    : 44 min 6 s
Bit rate mode               : Constant
Bit rate                    : 224 kb/s
Channel(s)                  : 2 channels
Sampling rate               : 48.0 kHz
Compression mode            : Lossy
Delay relative to video     : -40 ms
Stream size                 : 70.7 MiB (8%)
IMDB / Кинопоиск
Скриншоты
Модерация
Закрыто
Не оформлено

В раздаче отсутствуют необходимые параметры. Ознакомьтесь с правилами оформления раздач

Ваши ошибки при оформлении, их нужно устранить:


* Имя файла сезон 1, серии 16 (16)), у Вас два сезона серий 32
* Всего в сезоне серий: 16, их 32
* Видео: PAL 16:9 (544x576) MPEG 2 DVD, будем смотреть согласно MediaInfo, предоставьте медиаинфо пятой серии.
* Качество:  DVDRip, в названии файла  DVD
* скриншоты не открываются, перезалейте
* раздача не сидируется
Не соответствует описанию раздачи
модератор: gxtkf
09.07.2017 17:20:51
Рейтинг
  • Currently 10.00/10
Оценка: 10.0 из 10.0 (Всего: 1)
Поделиться с друзьями
Размер 31.23 GB (33536542720 байт)
Показать/Скрыть файлы
Добавлен 07.07.2017 16:06:27
Аплоадер zhenia1977
Скачали 5 раз
Пиры сиды: 1, личеры: 0 = 1 Пиры
Скачать
Скачать торрент Грязная работа (сезон 1-2, серии 32(32)) [2009, DVD]


zhenia1977
Замена на копию более лучшего качества
zhenia1977
Замена на копию более лучшего качества
zhenia1977
Обновлена версия
zhenia1977
Обновлена версия


Панель пользователя
Поиск торрентов
Радио
Игра на бонусы
Результаты конкурсов
Сотрудничество
Голосуй за нас!
Голосуй за нас каждые сутки и получай 50 бонусов!
Пожертвовать
Форум
Топики: 2,840
Ответы: 260,909
Топики/Ответы: 1%
Последние торренты
 Galactic Civilizations III [2015, RUS(MU...
Добавлен 21.07.2017 в 22:06:01
 Бабло (2011) BDRip 720p
Добавлен 21.07.2017 в 22:04:59
 VA - Ibiza House Opening 2017 - House &a...
Добавлен 21.07.2017 в 21:32:13
 Сфера / The Circle (2017) HDRip | D | iT...
Добавлен 21.07.2017 в 18:31:43
 Сфера / The Circle (2017) BDRip 1080p | ...
Добавлен 21.07.2017 в 18:24:12
 Секретная экспедиция 11: Конец Мидгарда ...
Добавлен 21.07.2017 в 18:16:40
 Rust [Devblog 169] [2016, ENG(MULTI), Re...
Добавлен 21.07.2017 в 18:00:51
Материалы сайта предназначены для лиц 18 лет и старше.